Raat.Akeli.Hai.2020.Hindi.720p.NF.WEB-DL.AAC.5.1.x264.LLG

  • Category Movies
  • Type HD
  • Language Hindi
  • Total size 1.3 GB
  • Uploaded By LifeLongg
  • Downloads 2839
  • Last checked 1 hour ago
  • Date uploaded 2 months ago
  • Seeders 69
  • Leechers 28

Raat Akeli Hai

CrimeMysteryThriller

When a newly married landlord is murdered, a misfit cop’s investigation is complicated by the victim’s secretive family and his own conflicted heart.

Infohash : 2C65E06720B98B59C819166592B38C9E2D3DA0BA

Quote:




******************************Thumbnail:**********************



******************************Screenshots:********************

screenshot 1

screenshot 2

screenshot 3

screenshot 4

screenshot 5

screenshot 6

screenshot 7

screenshot 8

screenshot 9

screenshot 0


******************************************************

Raat.Akeli.Hai.2020.Hindi.720p.NF.WEB-DL.AAC.5.1.x264.LLG.mp4
Format : MPEG-4
Format profile : Base Media
Codec ID : isom (isom/iso2/avc1/mp41)
File size : 1.30 GiB
Duration : 2 h 29 min
Overall bit rate mode : Variable
Overall bit rate : 1 244 kb/s
Writing application : Lavf57.83.100

Video
ID : 1
Format : AVC
Format/Info : Advanced Video Codec
Format profile : [email protected]
Format settings : CABAC / 1 Ref Frames
Format settings, CABAC : Yes
Format settings, Reference frames : 1 frame
Codec ID : avc1
Codec ID/Info : Advanced Video Coding
Duration : 2 h 29 min
Bit rate mode : Variable
Bit rate : 906 kb/s
Maximum bit rate : 2 700 kb/s
Width : 1 280 pixels
Height : 720 pixels
Display aspect ratio : 16:9
Frame rate mode : Constant
Frame rate : 24.000 FPS
Color space : YUV
Chroma subsampling : 4:2:0
Bit depth : 8 bits
Scan type : Progressive
Bits/(Pixel*Frame) : 0.041
Stream size : 970 MiB (73%)
Codec configuration box : avcC

Audio
ID : 2
Format : AAC LC
Format/Info : Advanced Audio Codec Low Complexity
Codec ID : mp4a-40-2
Duration : 2 h 29 min
Bit rate mode : Variable
Bit rate : 333 kb/s
Maximum bit rate : 341 kb/s
Channel(s) : 6 channels
Channel layout : C L R Ls Rs LFE
Sampling rate : 48.0 kHz
Frame rate : 46.875 FPS (1024 SPF)
Compression mode : Lossy
Stream size : 357 MiB (27%)
Language : Hindi
Default : Yes
Alternate group : 1




********************************************************


[quote]

Files:

Raat.Akeli.Hai.2020.Hindi.720p.NF.WEB-DL.AAC.5.1.x264.LLG
  • SAMPLE.mp4 (9.1 MB)
  • Raat.Akeli.Hai.2020.Hindi.720p.NF.WEB-DL.AAC.5.1.x264.LLG.mp4 (1.3 GB)

There are currently no comments. Feel free to leave one :)

Code:

  • udp://tracker.openbittorrent.com:80/announce
  • udp://tracker.opentrackr.org:1337/announce
  • UDP://TRACKER.LEECHERS-PARADISE.ORG:6969/ANNOUNCE