V (2020) 720p WEBRip x264 AAC Multi Aud [ Tel+ Tam + Mal + Kan ] ...

  • Category Movies
  • Type Dubs/Dual Audio
  • Language Telugu
  • Total size 1.7 GB
  • Uploaded By krishh1337
  • Downloads 12771
  • Last checked 2 weeks ago
  • Date uploaded 3 weeks ago
  • Seeders 162
  • Leechers 42

Ford v Ferrari

DramaHistoryAction

American car designer Carroll Shelby and the British-born driver Ken Miles work together to battle corporate interference, the laws of physics, and their own personal demons to build a revolutionary race car for Ford Motor Company and take on the dominating race cars of Enzo Ferrari at the 24 Hours of Le Mans in France in 1966.

Infohash : EB713E218C0AE7336B31D859C301304FC529C73D



V (2020)
Action, Thriller | 5 September 2020 (USA)

A mysterious man with name 'V' seaks revenge for his wife's murder all while being chased by a determined cop.

Director: Mohana Krishna Indraganti

Stars: Nani, Sudheer Babu Posani, Nivetha Thomas .

Format : Matroska
Format version : Version 4
File size : 1.69 GiB
Duration : 2 h 20 min
Overall bit rate : 1 720 kb/s

Video
ID : 1
Format : AVC
Format/Info : Advanced Video Codec
Format profile : [email protected]
Format settings : CABAC / 4 Ref Frames
Format settings, CABAC : Yes
Format settings, Reference frames : 4 frames
Codec ID : V_MPEG4/ISO/AVC
Duration : 2 h 20 min
Bit rate : 1 345 kb/s
Width : 1 280 pixels
Height : 544 pixels
Display aspect ratio : 2.35:1
Frame rate mode : Constant
Frame rate : 24.000 FPS
Color space : YUV
Chroma subsampling : 4:2:0
Bit depth : 8 bits
Scan type : Progressive
Bits/(Pixel*Frame) : 0.080
Stream size : 1.32 GiB (78%)

Audio #1
ID : 2
Format : AAC LC
Format/Info : Advanced Audio Codec Low Complexity
Codec ID : A_AAC-2
Duration : 2 h 20 min
Bit rate : 93.6 kb/s
Channel(s) : 2 channels
Channel layout : L R
Sampling rate : 44.1 kHz
Frame rate : 43.066 FPS (1024 SPF)
Compression mode : Lossy
Stream size : 94.0 MiB (5%)
Language : Telugu
Default : Yes
Forced : Yes

Audio #2
ID : 3
Format : AAC LC
Format/Info : Advanced Audio Codec Low Complexity
Codec ID : A_AAC-2
Duration : 2 h 20 min
Bit rate : 93.6 kb/s
Channel(s) : 2 channels
Channel layout : L R
Sampling rate : 44.1 kHz
Frame rate : 43.066 FPS (1024 SPF)
Compression mode : Lossy
Stream size : 94.0 MiB (5%)
Language : Tamil
Default : No
Forced : No

Audio #3
ID : 4
Format : AAC LC
Format/Info : Advanced Audio Codec Low Complexity
Codec ID : A_AAC-2
Duration : 2 h 20 min
Bit rate : 93.6 kb/s
Channel(s) : 2 channels
Channel layout : L R
Sampling rate : 44.1 kHz
Frame rate : 43.066 FPS (1024 SPF)
Compression mode : Lossy
Stream size : 94.0 MiB (5%)
Language : Malayalam
Default : No
Forced : No

Audio #4
ID : 5
Format : AAC LC
Format/Info : Advanced Audio Codec Low Complexity
Codec ID : A_AAC-2
Duration : 2 h 20 min
Bit rate : 93.6 kb/s
Channel(s) : 2 channels
Channel layout : L R
Sampling rate : 44.1 kHz
Frame rate : 43.066 FPS (1024 SPF)
Compression mode : Lossy
Stream size : 94.0 MiB (5%)
Language : Kannada
Default : No
Forced : No

Text #1
ID : 6
Format : UTF-8
Codec ID : S_TEXT/UTF8
Codec ID/Info : UTF-8 Plain Text
Duration : 2 h 16 min
Bit rate : 161 b/s
Count of elements : 1927
Stream size : 160 KiB (0%)
Language : Hindi
Default : Yes
Forced : No

Text #2
ID : 7
Format : UTF-8
Codec ID : S_TEXT/UTF8
Codec ID/Info : UTF-8 Plain Text
Duration : 2 h 16 min
Bit rate : 164 b/s
Count of elements : 1927
Stream size : 164 KiB (0%)
Language : Bengali
Default : No
Forced : No

Text #3
ID : 8
Format : UTF-8
Codec ID : S_TEXT/UTF8
Codec ID/Info : UTF-8 Plain Text
Duration : 2 h 15 min
Bit rate : 61 b/s
Count of elements : 1923
Stream size : 60.6 KiB (0%)
Language : English
Default : No
Forced : No

Files:

  • V (2020) 720p WEBRip x264 AAC Multi Aud [ Tel+ Tam + Mal + Kan ] Hindi Sub.mkv (1.7 GB)

There are currently no comments. Feel free to leave one :)

Code:

  • udp://exodus.desync.com:6969/announce
  • http://tracker3.itzmx.com:8080/announce
  • udp://explodie.org:6969/announce
  • udp://9.rarbg.to:2800/announce
  • http://tracker3.itzmx.com:6961/announce
  • http://tracker1.itzmx.com:8080/announce
  • udp://tracker.tiny-vps.com:6969/announce
  • udp://tracker.moeking.me:6969/announce
  • udp://tracker.torrent.eu.org:451/announce
  • udp://ipv4.tracker.harry.lu:80/announce
  • udp://tracker.opentrackr.org:1337/announce
  • http://explodie.org:6969/announce
  • http://tracker.opentrackr.org:1337/announce
  • udp://tracker.leechers-paradise.org:6969/announce
  • udp://tracker.open-internet.nl:6969/announce
  • udp://tracker.coppersurfer.tk:6969/announce
  • http://t.nyaatracker.com:80/announce
  • udp://open.stealth.si:80/announce
  • UDP://TRACKER.COPPERSURFER.TK:6969/ANNOUNCE
  • UDP://TRACKER.OPENTRACKR.ORG:1337/ANNOUNCE
  • UDP://TRACKER.LEECHERS-PARADISE.ORG:6969/ANNOUNCE