Gamer (2009) Extended Cut (1080p BDRip x265 10bit DTS-HD MA 7.1 -...

  • Category Movies
  • Type HEVC/x265
  • Language English
  • Total size 9.5 GB
  • Uploaded By Goki
  • Downloads 569
  • Last checked 4 days ago
  • Date uploaded 2 weeks ago
  • Seeders 15
  • Leechers 1

Gamer

ActionScience FictionThriller

Mind-control technology has taken society by a storm, a multiplayer on-line game called "Slayers" allows players to control human prisoners in mass-scale. Simon (Lerman) controls Kable (Butler), the online champion of the game. Kable's ultimate challenge becomes regaining his identity and independence by defeating the game's mastermind (Hall).

Infohash : 04F31B33188A5AADD13D1BAA4FFADED7D8070A7B






Gamer (2009) IMDB














Media Information



General
Unique ID : 203076074158521202468793072601667953964 (0x98C7077B07DDA47379ABD1765593652C)
Complete name : Gamer (2009) Extended Cut (1080p BDRip x265 10bit DTS-HD MA 7.1 - xtrem3x) [TAoE].mkv
Format : Matroska
Format version : Version 4
File size : 9.52 GiB
Duration : 1 h 34 min
Overall bit rate mode : Variable
Overall bit rate : 14.4 Mb/s
Writing application : Lavf58.29.100
Writing library : Lavf58.29.100
ErrorDetectionType : Per level 1

Video
ID : 1
Format : HEVC
Format/Info : High Efficiency Video Coding
Format profile : Main [email protected]@Main
Codec ID : V_MPEGH/ISO/HEVC
Duration : 1 h 34 min
Bit rate : 8 815 kb/s
Width : 1 920 pixels
Height : 1 024 pixels
Display aspect ratio : 1.85:1
Frame rate mode : Constant
Frame rate : 23.976 (24000/1001) FPS
Color space : YUV
Chroma subsampling : 4:2:0
Bit depth : 10 bits
Bits/(Pixel*Frame) : 0.187
Stream size : 5.83 GiB (61%)
Title : Encoded by xtrem3x for TAoE using Shinguru V2.1
Writing library : x265 3.3+29-1e3dbf09ee4f:[Windows][GCC 9.3.1][64 bit] 10bit
Encoding settings : cpuid=1111039 / frame-threads=4 / numa-pools=16 / wpp / no-pmode / no-pme / no-psnr / no-ssim / log-level=2 / input-csp=1 / input-res=1920x1024 / interlace=0 / total-frames=0 / level-idc=0 / high-tier=1 / uhd-bd=0 / ref=4 / no-allow-non-conformance / no-repeat-headers / annexb / no-aud / no-hrd / info / hash=0 / no-temporal-layers / open-gop / min-keyint=23 / keyint=250 / gop-lookahead=0 / bframes=8 / b-adapt=2 / b-pyramid / bframe-bias=0 / rc-lookahead=80 / lookahead-slices=4 / scenecut=40 / hist-scenecut=0 / radl=0 / no-splice / no-intra-refresh / ctu=64 / min-cu-size=8 / no-rect / no-amp / max-tu-size=32 / tu-inter-depth=1 / tu-intra-depth=1 / limit-tu=0 / rdoq-level=2 / dynamic-rd=0.00 / no-ssim-rd / signhide / no-tskip / nr-intra=0 / nr-inter=0 / no-constrained-intra / no-strong-intra-smoothing / max-merge=3 / limit-refs=3 / limit-modes / me=3 / subme=5 / merange=57 / temporal-mvp / no-frame-dup / no-hme / weightp / no-weightb / no-analyze-src-pics / deblock=0:0 / sao / no-sao-non-deblock / rd=4 / selective-sao=4 / no-early-skip / rskip / no-fast-intra / no-tskip-fast / no-cu-lossless / no-b-intra / no-splitrd-skip / rdpenalty=0 / psy-rd=1.30 / psy-rdoq=2.00 / no-rd-refine / no-lossless / cbqpoffs=0 / crqpoffs=0 / rc=crf / crf=18.0 / qcomp=0.60 / qpstep=4 / stats-write=0 / stats-read=0 / ipratio=1.40 / pbratio=1.30 / aq-mode=4 / aq-strength=1.10 / cutree / zone-count=0 / no-strict-cbr / qg-size=32 / no-rc-grain / qpmax=69 / qpmin=0 / no-const-vbv / sar=1 / overscan=0 / videoformat=5 / range=0 / colorprim=2 / transfer=2 / colormatrix=2 / chromaloc=0 / display-window=0 / cll=0,0 / min-luma=0 / max-luma=1023 / log2-max-poc-lsb=8 / vui-timing-info / vui-hrd-info / slices=1 / no-opt-qp-pps / no-opt-ref-list-length-pps / no-multi-pass-opt-rps / scenecut-bias=0.05 / hist-threshold=0.01 / no-opt-cu-delta-qp / no-aq-motion / no-hdr10 / no-hdr10-opt / no-dhdr10-opt / no-idr-recovery-sei / analysis-reuse-level=0 / analysis-save-reuse-level=0 / analysis-load-reuse-level=0 / scale-factor=0 / refine-intra=0 / refine-inter=0 / refine-mv=1 / refine-ctu-distortion=0 / no-limit-sao / ctu-info=0 / no-lowpass-dct / refine-analysis-type=0 / copy-pic=1 / max-ausize-factor=1.0 / no-dynamic-refine / no-single-sei / no-hevc-aq / no-svt / no-field / qp-adaptation-range=1.00 / no-scenecut-aware-qpconformance-window-offsets / right=0 / bottom=0 / decoder-max-rate=0
Default : Yes
Forced : No
Color range : Limited

Audio #1
ID : 2
Format : DTS XLL
Format/Info : Digital Theater Systems
Commercial name : DTS-HD Master Audio
Codec ID : A_DTS
Duration : 1 h 34 min
Bit rate mode : Variable
Bit rate : 5 122 kb/s
Channel(s) : 8 channels
Channel layout : C L R LFE Lb Rb Lss Rss
Sampling rate : 48.0 kHz
Frame rate : 93.750 FPS (512 SPF)
Bit depth : 24 bits
Compression mode : Lossless
Stream size : 3.39 GiB (36%)
Language : English
Default : Yes
Forced : No

Audio #2
ID : 3
Format : AC-3
Format/Info : Audio Coding 3
Commercial name : Dolby Digital
Codec ID : A_AC3
Duration : 1 h 34 min
Bit rate mode : Constant
Bit rate : 224 kb/s
Channel(s) : 2 channels
Channel layout : L R
Sampling rate : 48.0 kHz
Frame rate : 31.250 FPS (1536 SPF)
Bit depth : 16 bits
Compression mode : Lossy
Delay relative to video : 15 ms
Stream size : 152 MiB (2%)
Title : Commentary by Mark Neveldine/Brian Taylor/Terry Crews
Language : English
Service kind : Complete Main
Default : No
Forced : No

Text #1
ID : 4
Format : PGS
Codec ID : S_HDMV/PGS
Codec ID/Info : Picture based subtitle format used on BDs/HD-DVDs
Duration : 1 h 23 min
Bit rate : 27.0 kb/s
Count of elements : 1571
Stream size : 16.1 MiB (0%)
Title : English
Language : English
Default : No
Forced : No

Text #2
ID : 5
Format : PGS
Codec ID : S_HDMV/PGS
Codec ID/Info : Picture based subtitle format used on BDs/HD-DVDs
Duration : 1 h 24 min
Bit rate : 32.3 kb/s
Count of elements : 2041
Stream size : 19.5 MiB (0%)
Title : English (SDH)
Language : English
Default : No
Forced : No

Text #3
ID : 6
Format : PGS
Codec ID : S_HDMV/PGS
Codec ID/Info : Picture based subtitle format used on BDs/HD-DVDs
Duration : 1 h 25 min
Bit rate : 23.4 kb/s
Count of elements : 1653
Stream size : 14.3 MiB (0%)
Title : Spanish (Latin American)
Language : Spanish
Default : No
Forced : No

Text #4
ID : 7
Format : PGS
Codec ID : S_HDMV/PGS
Codec ID/Info : Picture based subtitle format used on BDs/HD-DVDs
Duration : 1 h 33 min
Bit rate : 35.8 kb/s
Count of elements : 1540
Stream size : 24.0 MiB (0%)
Title : German (SDH)
Language : German
Default : No
Forced : No

Text #5
ID : 8
Format : PGS
Codec ID : S_HDMV/PGS
Codec ID/Info : Picture based subtitle format used on BDs/HD-DVDs
Duration : 1 h 25 min
Bit rate : 26.4 kb/s
Count of elements : 1102
Stream size : 16.0 MiB (0%)
Title : Swedish
Language : Swedish
Default : No
Forced : No

Text #6
ID : 9
Format : PGS
Codec ID : S_HDMV/PGS
Codec ID/Info : Picture based subtitle format used on BDs/HD-DVDs
Duration : 1 h 25 min
Bit rate : 31.7 kb/s
Count of elements : 1336
Stream size : 19.3 MiB (0%)
Title : Norwegian
Language : Norwegian
Default : No
Forced : No

Text #7
ID : 10
Format : PGS
Codec ID : S_HDMV/PGS
Codec ID/Info : Picture based subtitle format used on BDs/HD-DVDs
Duration : 1 h 25 min
Bit rate : 29.4 kb/s
Count of elements : 1102
Stream size : 17.9 MiB (0%)
Title : Finnish
Language : Finnish
Default : No
Forced : No

Text #8
ID : 11
Format : PGS
Codec ID : S_HDMV/PGS
Codec ID/Info : Picture based subtitle format used on BDs/HD-DVDs
Duration : 1 h 25 min
Bit rate : 24.7 kb/s
Count of elements : 1296
Stream size : 15.2 MiB (0%)
Title : Polish
Language : Polish
Default : No
Forced : No

Menu
00:00:00.000 : :Game On
00:04:51.749 : :We Have It
00:08:10.948 : :Not A Bad Deal
00:16:31.031 : :Go Somewhere
00:20:09.374 : :Battle Zone
00:27:35.278 : :No Control
00:33:28.256 : :Pay Attention
00:38:19.505 : :People Like You
00:42:06.982 : :Another Way
00:45:56.712 : :Get In The Game
00:52:40.573 : :Few Questions
00:57:51.008 : :Rave
01:02:18.442 : :Suspect
01:07:41.348 : :A Test
01:11:28.867 : :Latest And Greatest
01:19:13.915 : :You Are Mine


Source Information



General
Unique ID : 75952109639073184148393943545783947760 (0x3923D81F69C7463021BA130D5DD291F0)
Complete name : Gamer.2009.Extended.Cut.BluRay.1080p.DTS-HD.MA.7.1.AVC.HYBRID.REMUX-FraMeSToR.mkv
Format : Matroska
Format version : Version 4
File size : 18.0 GiB
Duration : 1 h 34 min
Overall bit rate mode : Variable
Overall bit rate : 27.2 Mb/s
Encoded date : UTC 2017-09-27 18:43:53
Writing application : mkvmerge v15.0.0 ('Duel with the Devil') 64-bit
Writing library : libebml v1.3.5 + libmatroska v1.4.5

Video
ID : 1
Format : AVC
Format/Info : Advanced Video Codec
Format profile : [email protected]
Format settings : CABAC / 4 Ref Frames
Format settings, CABAC : Yes
Format settings, Reference frames : 4 frames
Format settings, GOP : M=3, N=12
Codec ID : V_MPEG4/ISO/AVC
Duration : 1 h 34 min
Bit rate mode : Variable
Bit rate : 21.6 Mb/s
Maximum bit rate : 37.0 Mb/s
Width : 1 920 pixels
Height : 1 080 pixels
Display aspect ratio : 16:9
Frame rate mode : Constant
Frame rate : 23.976 (24000/1001) FPS
Color space : YUV
Chroma subsampling : 4:2:0
Bit depth : 8 bits
Scan type : Progressive
Bits/(Pixel*Frame) : 0.435
Stream size : 14.3 GiB (80%)
Default : Yes
Forced : No
Color range : Limited
Color primaries : BT.709
Transfer characteristics : BT.709
Matrix coefficients : BT.709

Audio #1
ID : 2
Format : DTS XLL
Format/Info : Digital Theater Systems
Commercial name : DTS-HD Master Audio
Codec ID : A_DTS
Duration : 1 h 34 min
Bit rate mode : Variable
Bit rate : 5 122 kb/s
Channel(s) : 8 channels
Channel layout : C L R LFE Lb Rb Lss Rss
Sampling rate : 48.0 kHz
Frame rate : 93.750 FPS (512 SPF)
Bit depth : 24 bits
Compression mode : Lossless
Stream size : 3.39 GiB (19%)
Language : English
Default : Yes
Forced : No

Audio #2
ID : 3
Format : AC-3
Format/Info : Audio Coding 3
Commercial name : Dolby Digital
Codec ID : A_AC3
Duration : 1 h 34 min
Bit rate mode : Constant
Bit rate : 224 kb/s
Channel(s) : 2 channels
Channel layout : L R
Sampling rate : 48.0 kHz
Frame rate : 31.250 FPS (1536 SPF)
Bit depth : 16 bits
Compression mode : Lossy
Delay relative to video : 15 ms
Stream size : 152 MiB (1%)
Title : Commentary by Mark Neveldine/Brian Taylor/Terry Crews
Language : English
Service kind : Complete Main
Default : No
Forced : No

Text #1
ID : 4
Format : PGS
Codec ID : S_HDMV/PGS
Codec ID/Info : Picture based subtitle format used on BDs/HD-DVDs
Duration : 1 h 23 min
Bit rate : 27.0 kb/s
Count of elements : 1571
Stream size : 16.1 MiB (0%)
Title : English
Language : English
Default : No
Forced : No

Text #2
ID : 5
Format : PGS
Codec ID : S_HDMV/PGS
Codec ID/Info : Picture based subtitle format used on BDs/HD-DVDs
Duration : 1 h 24 min
Bit rate : 32.3 kb/s
Count of elements : 2041
Stream size : 19.5 MiB (0%)
Title : English (SDH)
Language : English
Default : No
Forced : No

Text #3
ID : 6
Format : PGS
Codec ID : S_HDMV/PGS
Codec ID/Info : Picture based subtitle format used on BDs/HD-DVDs
Duration : 1 h 25 min
Bit rate : 23.4 kb/s
Count of elements : 1653
Stream size : 14.3 MiB (0%)
Title : Spanish (Latin American)
Language : Spanish
Default : No
Forced : No

Text #4
ID : 7
Format : PGS
Codec ID : S_HDMV/PGS
Codec ID/Info : Picture based subtitle format used on BDs/HD-DVDs
Duration : 1 h 33 min
Bit rate : 35.8 kb/s
Count of elements : 1540
Stream size : 24.0 MiB (0%)
Title : German (SDH)
Language : German
Default : No
Forced : No

Text #5
ID : 8
Format : PGS
Codec ID : S_HDMV/PGS
Codec ID/Info : Picture based subtitle format used on BDs/HD-DVDs
Duration : 1 h 25 min
Bit rate : 26.4 kb/s
Count of elements : 1102
Stream size : 16.0 MiB (0%)
Title : Swedish
Language : Swedish
Default : No
Forced : No

Text #6
ID : 9
Format : PGS
Codec ID : S_HDMV/PGS
Codec ID/Info : Picture based subtitle format used on BDs/HD-DVDs
Duration : 1 h 25 min
Bit rate : 31.7 kb/s
Count of elements : 1336
Stream size : 19.3 MiB (0%)
Title : Norwegian
Language : Norwegian
Default : No
Forced : No

Text #7
ID : 10
Format : PGS
Codec ID : S_HDMV/PGS
Codec ID/Info : Picture based subtitle format used on BDs/HD-DVDs
Duration : 1 h 25 min
Bit rate : 29.4 kb/s
Count of elements : 1102
Stream size : 17.9 MiB (0%)
Title : Finnish
Language : Finnish
Default : No
Forced : No

Text #8
ID : 11
Format : PGS
Codec ID : S_HDMV/PGS
Codec ID/Info : Picture based subtitle format used on BDs/HD-DVDs
Duration : 1 h 25 min
Bit rate : 24.7 kb/s
Count of elements : 1296
Stream size : 15.2 MiB (0%)
Title : Polish
Language : Polish
Default : No
Forced : No

Menu
00:00:00.000 : en:Game On
00:04:51.749 : en:We Have It
00:08:10.948 : en:Not A Bad Deal
00:16:31.031 : en:Go Somewhere
00:20:09.374 : en:Battle Zone
00:27:35.278 : en:No Control
00:33:28.256 : en:Pay Attention
00:38:19.505 : en:People Like You
00:42:06.982 : en:Another Way
00:45:56.712 : en:Get In The Game
00:52:40.573 : en:Few Questions
00:57:51.008 : en:Rave
01:02:18.442 : en:Suspect
01:07:41.348 : en:A Test
01:11:28.867 : en:Latest And Greatest
01:19:13.915 : en:You Are Mine

Files:

  • Gamer (2009) Extended Cut (1080p BDRip x265 10bit DTS-HD MA 7.1 - xtrem3x) [TAoE].mkv (9.5 GB)

Comments

Code:

  • udp://tracker.coppersurfer.tk:6969/announce
  • udp://tracker.internetwarriors.net:1337/announce
  • http://tracker.opentrackr.org:1337/announce
  • udp://denis.stalker.upeer.me:6969/announce
  • udp://tracker.internetwarriors.net:1337
  • udp://9.rarbg.me:2720/announce
  • udp://explodie.org:6969/announce
  • udp://tracker.cyberia.is:6969/announce
  • udp://thetracker.org/announce
  • udp://open.demonii.si:1337/announce