The Room (2019) 1080p BluRay x264 Hindi-English Esub ~Insane~

  • Category Movies
  • Type Dubs/Dual Audio
  • Language Hindi
  • Total size 2.2 GB
  • Uploaded By TheFighter
  • Downloads 1549
  • Last checked 1 hour ago
  • Date uploaded 2 days ago
  • Seeders 62
  • Leechers 14

The Room

Science FictionMysteryDrama

Kate and Matt discover that a part of their house can grant wishes. In the wake of several miscarriages, what they want most is a child.

Infohash : A83B144559B4B5F290A438BF1650BF3A76FC9F55



The Room (2019) 1080p BluRay x264 Hindi-English Esub ~Insane~

Thanks To Hammer For Hindi Audio

Video Source :Pahe
General
Format : Matroska
Format version : Version 4
File size : 2.20 GiB
Duration : 1 h 39 min
Overall bit rate : 3 170 kb/s
Movie name : The Room (2019) 1080p BluRay x264 Hindi-English Esub ~Insane~

Video
ID : 1
Format : AVC
Format/Info : Advanced Video Codec
Format profile : [email protected]
Format settings : CABAC / 5 Ref Frames
Format settings, CABAC : Yes
Format settings, Reference frames : 5 frames
Codec ID : V_MPEG4/ISO/AVC
Duration : 1 h 39 min
Bit rate : 2 278 kb/s
Width : 1 920 pixels
Height : 804 pixels
Display aspect ratio : 2.40:1
Frame rate mode : Constant
Frame rate : 24.000 FPS
Color space : YUV
Chroma subsampling : 4:2:0
Bit depth : 8 bits
Scan type : Progressive
Bits/(Pixel*Frame) : 0.061
Stream size : 1.57 GiB (72%)
Title : ~Insane~
Default : Yes
Forced : No

Audio #1
ID : 2
Format : AC-3
Format/Info : Audio Coding 3
Commercial name : Dolby Digital
Codec ID : A_AC3
Duration : 1 h 39 min
Bit rate mode : Constant
Bit rate : 640 kb/s
Channel(s) : 6 channels
Channel layout : L R C LFE Ls Rs
Sampling rate : 48.0 kHz
Frame rate : 31.250 FPS (1536 SPF)
Compression mode : Lossy
Delay relative to video : 28 ms
Stream size : 454 MiB (20%)
Title : ~Insane~
Language : Hindi
Service kind : Complete Main
Default : Yes
Forced : Yes

Audio #2
ID : 3
Format : AAC LC
Format/Info : Advanced Audio Codec Low Complexity
Codec ID : A_AAC-2
Duration : 1 h 39 min
Bit rate : 255 kb/s
Channel(s) : 6 channels
Channel layout : C L R Ls Rs LFE
Sampling rate : 48.0 kHz
Frame rate : 46.875 FPS (1024 SPF)
Compression mode : Lossy
Delay relative to video : 9 ms
Stream size : 181 MiB (8%)
Title : ~Insane~
Language : English
Default : No
Forced : No

Text
ID : 4
Format : UTF-8
Codec ID : S_TEXT/UTF8
Codec ID/Info : UTF-8 Plain Text
Duration : 1 h 31 min
Bit rate : 23 b/s
Count of elements : 700
Stream size : 15.6 KiB (0%)
Title : ~Insane~
Language : English
Default : Yes
Forced : Yes









Files:

The Room (2019) 1080p BluRay x264 Hindi-English Esub ~Insane~
  • The Room (2019) 1080p BluRay x264 Hindi-English Esub ~Insane~.mkv (2.2 GB)

There are currently no comments. Feel free to leave one :)

Code:

  • udp://tracker.pirateparty.gr:6969/announce
  • udp://tracker.tiny-vps.com:6969/announce
  • udp://open.stealth.si:80/announce
  • udp://tracker.opentrackr.org:1337/announce
  • udp://tracker.internetwarriors.net:1337/announce
  • udp://9.rarbg.to:2800/announce
  • http://tracker.torrentyorg.pl:80/announce
  • udp://9.rarbg.me:2740/announce
  • udp://thetracker.org:80/announce
  • udp://tracker.coppersurfer.tk:6969/announce
  • https://tracker.fastdownload.xyz:443/announce
  • udp://torrentclub.tech:6969/announce
  • udp://open.demonii.si:1337/announce
  • http://vps02.net.orel.ru:80/announce
  • udp://ipv4.tracker.harry.lu:80/announce