Ted Lasso (2020) S01E07 Make Rebecca Great Again (1080p ATVP-WEBR...

  • Category TV
  • Type HEVC/x265
  • Language English
  • Total size 518.4 MB
  • Uploaded By RT701
  • Downloads 234
  • Last checked 1 hour ago
  • Date uploaded 1 week ago
  • Seeders 4
  • Leechers 0

Infohash : E9B5B98701B7D374E1E06F5143EC1C9078AFCEA6

Ted Lasso (2020) S01E07 Make Rebecca Great Again TVDb

a cTurtle Cømpact release -- x265 10bit, crf22, med preset, further adjustments, edge filters applied, 2 audio tracks





Code:

Source:Ted.Lasso.S01E07.1080p.ATVP.WEB-DL.DDP5.1.Atmos.x264-NOGRP.mkv (2.40 GB)


Quote:


Format                                   : Matroska
Format version                           : Version 4
File size                                : 518 MiB
Duration                                 : 32 min 8 s
Overall bit rate                         : 2 255 kb/s
Movie name                               : Make Rebecca Great Again
Encoded date                             : UTC 2020-09-15 11:49:18
Writing application                      : mkvmerge v40.0.0 ('Old Town Road + Pony') 64-bit
Writing library                          : libebml v1.3.9 + libmatroska v1.5.2

Video
ID                                       : 1
Format                                   : HEVC
Format/Info                              : High Efficiency Video Coding
Format profile                           : Main [email protected]@Main
Codec ID                                 : V_MPEGH/ISO/HEVC
Duration                                 : 32 min 8 s
Bit rate                                 : 1 255 kb/s
Width                                    : 1 920 pixels
Height                                   : 958 pixels
Display aspect ratio                     : 2.004
Frame rate mode                          : Constant
Frame rate                               : 23.976 (24000/1001) FPS
Color space                              : YUV
Chroma subsampling                       : 4:2:0
Bit depth                                : 10 bits
Bits/(Pixel*Frame)                       : 0.028
Stream size                              : 289 MiB (56%)
Title                                    : crf22 HEVC (from 10Mbps 1080p AVC original)
Writing library                          : x265 3.2.1+1-b5c86a64bbbe:[Mac OS X][clang 11.0.3][64 bit] 10bit
Encoding settings                        : cpuid=1111039 / frame-threads=3 / wpp / no-pmode / no-pme / no-psnr / no-ssim / log-level=2 / input-csp=1 / input-res=1920x958 / interlace=0 / total-frames=0 / level-idc=0 / high-tier=1 / uhd-bd=0 / ref=3 / no-allow-non-conformance / no-repeat-headers / annexb / no-aud / no-hrd / info / hash=0 / no-temporal-layers / open-gop / min-keyint=24 / keyint=240 / gop-lookahead=0 / bframes=8 / b-adapt=2 / b-pyramid / bframe-bias=0 / rc-lookahead=80 / lookahead-slices=6 / scenecut=40 / radl=0 / no-splice / no-intra-refresh / ctu=64 / min-cu-size=8 / no-rect / no-amp / max-tu-size=32 / tu-inter-depth=1 / tu-intra-depth=1 / limit-tu=0 / rdoq-level=0 / dynamic-rd=0.00 / no-ssim-rd / signhide / no-tskip / nr-intra=0 / nr-inter=0 / no-constrained-intra / no-strong-intra-smoothing / max-merge=3 / limit-refs=1 / no-limit-modes / me=1 / subme=5 / merange=57 / temporal-mvp / no-hme / weightp / no-weightb / no-analyze-src-pics / deblock=0:0 / sao / no-sao-non-deblock / rd=3 / selective-sao=4 / early-skip / rskip / no-fast-intra / no-tskip-fast / no-cu-lossless / b-intra / no-splitrd-skip / rdpenalty=0 / psy-rd=1.30 / psy-rdoq=0.00 / no-rd-refine / no-lossless / cbqpoffs=0 / crqpoffs=0 / rc=crf / crf=22.0 / qcomp=0.60 / qpstep=4 / stats-write=0 / stats-read=0 / ipratio=1.40 / pbratio=1.30 / aq-mode=4 / aq-strength=1.10 / cutree / zone-count=0 / no-strict-cbr / qg-size=32 / no-rc-grain / qpmax=69 / qpmin=0 / no-const-vbv / sar=1 / overscan=0 / videoformat=5 / range=0 / colorprim=1 / transfer=1 / colormatrix=1 / chromaloc=0 / display-window=0 / cll=0,0 / min-luma=0 / max-luma=1023 / log2-max-poc-lsb=8 / vui-timing-info / vui-hrd-info / slices=1 / no-opt-qp-pps / no-opt-ref-list-length-pps / no-multi-pass-opt-rps / scenecut-bias=0.05 / no-opt-cu-delta-qp / no-aq-motion / no-hdr / no-hdr-opt / no-dhdr10-opt / no-idr-recovery-sei / analysis-reuse-level=5 / scale-factor=0 / refine-intra=0 / refine-inter=0 / refine-mv=1 / refine-ctu-distortion=0 / no-limit-sao / ctu-info=0 / no-lowpass-dct / refine-analysis-type=0 / copy-pic=1 / max-ausize-factor=1.0 / no-dynamic-refine / no-single-sei / no-hevc-aq / no-svt / no-field / qp-adaptation-range=1.00
Language                                 : English
Default                                  : Yes
Forced                                   : No
Color range                              : Limited
Color primaries                          : BT.709
Transfer characteristics                 : BT.709
Matrix coefficients                      : BT.709

Audio #1
ID                                       : 2
Format                                   : E-AC-3 JOC
Format/Info                              : Enhanced AC-3 with Joint Object Coding
Commercial name                          : Dolby Digital Plus with Dolby Atmos
Codec ID                                 : A_EAC3
Duration                                 : 32 min 8 s
Bit rate mode                            : Constant
Bit rate                                 : 768 kb/s
Channel(s)                               : 6 channels
Channel layout                           : L R C LFE Ls Rs
Sampling rate                            : 48.0 kHz
Frame rate                               : 31.250 FPS (1536 SPF)
Compression mode                         : Lossy
Stream size                              : 177 MiB (34%)
Title                                    : E-AC3 JOC 5.1 / 768kbps / original
Language                                 : English
Service kind                             : Complete Main
Default                                  : No
Forced                                   : No
Complexity index                         : 16
Number of dynamic objects                : 15
Bed channel count                        : 1 channel
Bed channel configuration                : LFE

Audio #2
ID                                       : 3
Format                                   : AAC LC
Format/Info                              : Advanced Audio Codec Low Complexity
Codec ID                                 : A_AAC-2
Duration                                 : 32 min 8 s
Bit rate                                 : 229 kb/s
Channel(s)                               : 6 channels
Channel layout                           : C L R Ls Rs LFE
Sampling rate                            : 48.0 kHz
Frame rate                               : 46.875 FPS (1024 SPF)
Compression mode                         : Lossy
Delay relative to video                  : -44 ms
Stream size                              : 52.7 MiB (10%)
Title                                    : AAC 5.1 / 224kbps (from E-AC3 JOC 5.1 / 768kbps / original)
Language                                 : English
Default                                  : No
Forced                                   : No

Text
ID                                       : 4
Format                                   : UTF-8
Codec ID                                 : S_TEXT/UTF8
Codec ID/Info                            : UTF-8 Plain Text
Duration                                 : 30 min 18 s
Bit rate                                 : 91 b/s
Count of elements                        : 527
Stream size                              : 20.3 KiB (0%)
Title                                    : English-SRT
Language                                 : English
Default                                  : No
Forced                                   : No


Files:

  • Ted Lasso (2020) S01E07 Make Rebecca Great Again (1080p ATVP-WEBRip x265 HEVC LsLt crf22-M E-AC3-AAC 5.1)[cTurtle-Cømpact].mkv (518.4 MB)

There are currently no comments. Feel free to leave one :)

Code:

  • http://share.camoe.cn:8080/announce
  • udp://tracker.torrent.eu.org:451/announce
  • http://t.nyaatracker.com:80/announce
  • udp://tracker.doko.moe:6969/announce
  • http://asnet.pw:2710/announce
  • udp://thetracker.org:80/announce
  • http://tracker.tfile.co:80/announce
  • http://pt.lax.mx:80/announce
  • udp://santost12.xyz:6969/announce
  • https://tracker.bt-hash.com:443/announce
  • udp://bt.xxx-tracker.com:2710/announce
  • udp://tracker.vanitycore.co:6969/announce
  • udp://zephir.monocul.us:6969/announce
  • http://grifon.info:80/announce
  • http://retracker.spark-rostov.ru:80/announce
  • http://tr.kxmp.cf:80/announce
  • http://tracker.city9x.com:2710/announce
  • udp://bt.aoeex.com:8000/announce
  • http://tracker.tfile.me:80/announce
  • udp://tracker.tiny-vps.com:6969/announce
  • http://retracker.telecom.by:80/announce
  • http://tracker.electro-torrent.pl:80/announce
  • udp://tracker.tvunderground.org.ru:3218/announce
  • udp://tracker.halfchub.club:6969/announce
  • udp://retracker.nts.su:2710/announce
  • udp://wambo.club:1337/announce
  • udp://tracker.dutchtracking.com:6969/announce
  • udp://tc.animereactor.ru:8082/announce
  • udp://tracker.justseed.it:1337/announce
  • udp://tracker.leechers-paradise.org:6969/announce
  • udp://tracker.opentrackr.org:1337/announce
  • https://open.kickasstracker.com:443/announce
  • udp://tracker.coppersurfer.tk:6969/announce
  • udp://open.stealth.si:80/announce
  • http://retracker.mgts.by:80/announce
  • http://retracker.bashtel.ru:80/announce
  • udp://inferno.demonoid.pw:3418/announce
  • udp://tracker.cypherpunks.ru:6969/announce
  • http://tracker.calculate.ru:6969/announce
  • udp://tracker.sktorrent.net:6969/announce
  • udp://tracker.grepler.com:6969/announce
  • udp://tracker.flashtorrents.org:6969/announce
  • udp://tracker.yoshi210.com:6969/announce
  • udp://tracker.tiny-vps.com:6969/announce
  • udp://tracker.internetwarriors.net:1337/announce
  • udp://mgtracker.org:2710/announce
  • http://tracker.yoshi210.com:6969/announce
  • http://tracker.tiny-vps.com:6969/announce
  • udp://tracker.filetracker.pl:8089/announce
  • udp://tracker.ex.ua:80/announce
  • http://mgtracker.org:2710/announce
  • udp://tracker.aletorrenty.pl:2710/announce
  • http://tracker.filetracker.pl:8089/announce
  • http://tracker.ex.ua/announce
  • http://mgtracker.org:6969/announce
  • http://retracker.krs-ix.ru:80/announce
  • udp://tracker2.indowebster.com:6969/announce
  • http://thetracker.org:80/announce
  • http://tracker.bittor.pw:1337/announce
  • udp://tracker.kicks-ass.net:80/announce
  • udp://tracker.aletorrenty.pl:2710/announce
  • http://tracker.aletorrenty.pl:2710/announce
  • http://tracker.bittorrent.am/announce
  • udp://tracker.kicks-ass.net:80/announce
  • http://tracker.kicks-ass.net/announce
  • http://tracker.baravik.org:6970/announce
  • http://tracker.dutchtracking.com/announce
  • http://tracker.dutchtracking.com:80/announce
  • udp://tracker4.piratux.com:6969/announce
  • http://tracker.internetwarriors.net:1337/announce
  • udp://tracker.skyts.net:6969/announce
  • http://tracker.dutchtracking.nl/announce
  • http://tracker2.itzmx.com:6961/announce
  • http://tracker2.wasabii.com.tw:6969/announce
  • udp://tracker.sktorrent.net:6969/announce
  • http://www.wareztorrent.com:80/announce
  • udp://bt.xxx-tracker.com:2710/announce
  • udp://tracker.eddie4.nl:6969/announce
  • udp://tracker.grepler.com:6969/announce
  • udp://tracker.mg64.net:2710/announce
  • udp://tracker.coppersurfer.tk:6969/announce
  • http://tracker.opentrackr.org:1337/announce
  • http://tracker.dutchtracking.nl:80/announce
  • http://tracker.edoardocolombo.eu:6969/announce
  • http://tracker.ex.ua:80/announce
  • http://tracker.kicks-ass.net:80/announce
  • http://tracker.mg64.net:6881/announce
  • udp://tracker.flashtorrents.org:6969/announce
  • http://tracker.tfile.me/announce
  • http://tracker1.wasabii.com.tw:6969/announce
  • udp://tracker.bittor.pw:1337/announce
  • http://tracker.tvunderground.org.ru:3218/announce
  • http://tracker.grepler.com:6969/announce
  • udp://tracker.bittor.pw:1337/announce
  • http://tracker.flashtorrents.org:6969/announce
  • http://retracker.gorcomnet.ru/announce
  • udp://tracker.sktorrent.net:6969/announce
  • udp://tracker.sktorrent.net:6969
  • udp://public.popcorn-tracker.org:6969/announce
  • udp://tracker.ilibr.org:80/announce
  • udp://tracker.kuroy.me:5944/announce
  • udp://tracker.mg64.net:6969/announce
  • udp://tracker.cyberia.is:6969/announce
  • http://tracker.devil-torrents.pl:80/announce
  • udp://tracker2.christianbro.pw:6969/announce
  • udp://retracker.lanta-net.ru:2710/announce
  • udp://tracker.internetwarriors.net:1337/announce
  • udp://ulfbrueggemann.no-ip.org:6969/announce
  • http://torrentsmd.eu:8080/announce
  • udp://peerfect.org:6969/announce
  • udp://tracker.swateam.org.uk:2710/announce
  • http://ns349743.ip-91-121-106.eu:80/announce
  • http://torrentsmd.me:8080/announce
  • http://agusiq-torrents.pl:6969/announce
  • http://fxtt.ru:80/announce
  • udp://tracker.vanitycore.co:6969/announce
  • udp://explodie.org:6969