Sherlock Holmes (2009) (1080p BluRay x265 HEVC 10bit AAC 5.1 Joy)...

  • Category Movies
  • Type HEVC/x265
  • Language English
  • Total size 1.7 GB
  • Uploaded By UTRCorp
  • Downloads 181
  • Last checked 19 minutes ago
  • Date uploaded 1 week ago
  • Seeders 3
  • Leechers 2

Sherlock Holmes

ActionAdventureComedyCrimeDramaMysteryThriller

Eccentric consulting detective Sherlock Holmes and Doctor John Watson battle to bring down a new nemesis and unravel a deadly plot that could destroy England.

Infohash : 50C68C30A5C4C0C8D5739EA1A3B3DE38743F64CB







Media Information

Code:

General
Format : Matroska
Format version : Version 4 / Version 2
File size : 1.68 GiB
Duration : 2 h 8 min
Overall bit rate : 1 873 kb/s
Encoded date : UTC 2020-09-15 07:08:01
Writing application : mkvmerge v48.0.0 ('Fortress Around Your Heart') 64-bit
Writing library : libebml v1.4.0 + libmatroska v1.6.0
Cover : Yes
Attachments : cover.jpg

Video
ID : 1
Format : HEVC
Format/Info : High Efficiency Video Coding
Format profile : Main [email protected]@Main
Codec ID : V_MPEGH/ISO/HEVC
Duration : 2 h 8 min
Bit rate : 1 501 kb/s
Width : 1 920 pixels
Height : 1 080 pixels
Display aspect ratio : 16:9
Frame rate mode : Constant
Frame rate : 23.976 (24000/1001) FPS
Color space : YUV
Chroma subsampling : 4:2:0
Bit depth : 10 bits
Bits/(Pixel*Frame) : 0.030
Stream size : 1.35 GiB (80%)
Writing library : x265 3.2+9-971180b100f8:[Windows][GCC 9.2.0][64 bit] 10bit
Encoding settings : cpuid=1111039 / frame-threads=3 / numa-pools=12 / wpp / no-pmode / no-pme / no-psnr / ssim / log-level=2 / input-csp=1 / input-res=1920x1080 / interlace=0 / total-frames=184857 / level-idc=0 / high-tier=1 / uhd-bd=0 / ref=4 / no-allow-non-conformance / no-repeat-headers / annexb / no-aud / no-hrd / info / hash=0 / no-temporal-layers / open-gop / min-keyint=23 / keyint=250 / gop-lookahead=0 / bframes=12 / b-adapt=2 / b-pyramid / bframe-bias=50 / rc-lookahead=80 / lookahead-slices=4 / scenecut=40 / radl=0 / no-splice / no-intra-refresh / ctu=64 / min-cu-size=8 / rect / no-amp / max-tu-size=32 / tu-inter-depth=1 / tu-intra-depth=1 / limit-tu=0 / rdoq-level=2 / dynamic-rd=0.00 / ssim-rd / signhide / no-tskip / nr-intra=0 / nr-inter=0 / constrained-intra / strong-intra-smoothing / max-merge=5 / limit-refs=3 / limit-modes / me=3 / subme=5 / merange=57 / temporal-mvp / no-frame-dup / no-hme / weightp / no-weightb / no-analyze-src-pics / deblock=0:0 / sao / no-sao-non-deblock / rd=4 / selective-sao=4 / early-skip / rskip / no-fast-intra / no-tskip-fast / no-cu-lossless / no-b-intra / splitrd-skip / rdpenalty=0 / psy-rd=3.50 / psy-rdoq=2.50 / no-rd-refine / no-lossless / cbqpoffs=0 / crqpoffs=0 / rc=abr / bitrate=1500 / qcomp=0.60 / qpstep=4 / stats-write=0 / stats-read=2 / cplxblur=20.0 / qblur=0.5 / ipratio=1.40 / pbratio=1.30 / aq-mode=3 / aq-strength=0.40 / cutree / zone-count=0 / no-strict-cbr / qg-size=32 / no-rc-grain / qpmax=69 / qpmin=0 / no-const-vbv / sar=0 / overscan=0 / videoformat=5 / range=0 / colorprim=2 / transfer=2 / colormatrix=2 / chromaloc=0 / display-window=0 / cll=0,0 / min-luma=0 / max-luma=1023 / log2-max-poc-lsb=8 / vui-timing-info / vui-hrd-info / slices=1 / no-opt-qp-pps / no-opt-ref-list-length-pps / multi-pass-opt-rps / scenecut-bias=0.05 / no-opt-cu-delta-qp / no-aq-motion / no-hdr / no-hdr-opt / no-dhdr10-opt / no-idr-recovery-sei / analysis-load / analysis-reuse-level=10 / scale-factor=0 / refine-intra=0 / refine-inter=0 / refine-mv=1 / refine-ctu-distortion=0 / limit-sao / ctu-info=0 / no-lowpass-dct / refine-analysis-type=0 / copy-pic=1 / max-ausize-factor=1.0 / no-dynamic-refine / no-single-sei / no-hevc-aq / no-svt / no-field / qp-adaptation-range=1.00
Default : Yes
Forced : No

Audio
ID : 2
Format : AAC
Format/Info : Advanced Audio Codec
Format profile : LC
Codec ID : A_AAC
Duration : 2 h 8 min
Bit rate : 259 kb/s
Channel(s) : 6 channels
Channel positions : Front: L C R, Side: L R, LFE
Sampling rate : 48.0 kHz
Frame rate : 46.875 FPS (1024 spf)
Compression mode : Lossy
Delay relative to video : 9 ms
Stream size : 238 MiB (14%)
Language : English
Default : No
Forced : No

Subtitle #1
ID : 3
Format : PGS
Muxing mode : zlib
Codec ID : S_HDMV/PGS
Codec ID/Info : Picture based subtitle format used on BDs/HD-DVDs
Duration : 2 h 0 min
Bit rate : 32.8 kb/s
Count of elements : 3016
Stream size : 28.2 MiB (2%)
Title : English-PGS
Language : English
Default : No
Forced : No

Subtitle #2
ID : 4
Format : UTF-8
Codec ID : S_TEXT/UTF8
Codec ID/Info : UTF-8 Plain Text
Duration : 1 h 58 min
Bit rate : 57 b/s
Count of elements : 1499
Stream size : 50.1 KiB (0%)
Title : English-SRT
Language : English
Default : No
Forced : No

Subtitle #3
ID : 5
Format : VobSub
Muxing mode : zlib
Codec ID : S_VOBSUB
Codec ID/Info : Picture based subtitle format used on DVDs
Duration : 2 h 6 min
Bit rate : 7 510 b/s
Count of elements : 1490
Stream size : 6.81 MiB (0%)
Language : French
Default : No
Forced : No

Subtitle #4
ID : 6
Format : VobSub
Muxing mode : zlib
Codec ID : S_VOBSUB
Codec ID/Info : Picture based subtitle format used on DVDs
Duration : 2 h 0 min
Bit rate : 12.7 kb/s
Count of elements : 1562
Stream size : 10.9 MiB (1%)
Language : German
Default : No
Forced : No

Subtitle #5
ID : 7
Format : VobSub
Muxing mode : zlib
Codec ID : S_VOBSUB
Codec ID/Info : Picture based subtitle format used on DVDs
Duration : 1 h 59 min
Bit rate : 9 596 b/s
Count of elements : 1422
Stream size : 8.19 MiB (0%)
Language : Spanish
Default : No
Forced : No

Subtitle #6
ID : 8
Format : VobSub
Muxing mode : zlib
Codec ID : S_VOBSUB
Codec ID/Info : Picture based subtitle format used on DVDs
Duration : 1 h 59 min
Bit rate : 8 238 b/s
Count of elements : 1116
Stream size : 7.03 MiB (0%)
Language : Dutch
Default : No
Forced : No

Subtitle #7
ID : 9
Format : VobSub
Muxing mode : zlib
Codec ID : S_VOBSUB
Codec ID/Info : Picture based subtitle format used on DVDs
Duration : 2 h 6 min
Bit rate : 7 476 b/s
Count of elements : 1446
Stream size : 6.77 MiB (0%)
Language : Chinese
Default : No
Forced : No

Subtitle #8
ID : 10
Format : VobSub
Muxing mode : zlib
Codec ID : S_VOBSUB
Codec ID/Info : Picture based subtitle format used on DVDs
Duration : 1 h 58 min
Bit rate : 8 231 b/s
Count of elements : 1456
Stream size : 7.00 MiB (0%)
Language : Chinese
Default : No
Forced : No

Subtitle #9
ID : 11
Format : VobSub
Muxing mode : zlib
Codec ID : S_VOBSUB
Codec ID/Info : Picture based subtitle format used on DVDs
Duration : 2 h 6 min
Bit rate : 6 430 b/s
Count of elements : 1430
Stream size : 5.82 MiB (0%)
Language : Chinese
Default : No
Forced : No

Subtitle #10
ID : 12
Format : VobSub
Muxing mode : zlib
Codec ID : S_VOBSUB
Codec ID/Info : Picture based subtitle format used on DVDs
Duration : 2 h 6 min
Bit rate : 5 864 b/s
Count of elements : 1405
Stream size : 5.31 MiB (0%)
Language : Korean
Default : No
Forced : No

Subtitle #11
ID : 13
Format : VobSub
Muxing mode : zlib
Codec ID : S_VOBSUB
Codec ID/Info : Picture based subtitle format used on DVDs
Duration : 2 h 6 min
Bit rate : 9 028 b/s
Count of elements : 1473
Stream size : 8.18 MiB (0%)
Language : Spanish
Default : No
Forced : No

Subtitle #12
ID : 14
Format : VobSub
Muxing mode : zlib
Codec ID : S_VOBSUB
Codec ID/Info : Picture based subtitle format used on DVDs
Duration : 2 h 6 min
Bit rate : 5 194 b/s
Count of elements : 1442
Stream size : 4.71 MiB (0%)
Language : Arabic
Default : No
Forced : No

Subtitle #13
ID : 15
Format : VobSub
Muxing mode : zlib
Codec ID : S_VOBSUB
Codec ID/Info : Picture based subtitle format used on DVDs
Duration : 2 h 6 min
Bit rate : 8 061 b/s
Count of elements : 1417
Stream size : 7.31 MiB (0%)
Language : Czech
Default : No
Forced : No

Subtitle #14
ID : 16
Format : VobSub
Muxing mode : zlib
Codec ID : S_VOBSUB
Codec ID/Info : Picture based subtitle format used on DVDs
Duration : 2 h 6 min
Bit rate : 8 589 b/s
Count of elements : 1296
Stream size : 7.79 MiB (0%)
Language : Danish
Default : No
Forced : No

Subtitle #15
ID : 17
Format : VobSub
Muxing mode : zlib
Codec ID : S_VOBSUB
Codec ID/Info : Picture based subtitle format used on DVDs
Duration : 2 h 6 min
Bit rate : 9 130 b/s
Count of elements : 1332
Stream size : 8.28 MiB (0%)
Language : Finnish
Default : No
Forced : No

Subtitle #16
ID : 18
Format : VobSub
Muxing mode : zlib
Codec ID : S_VOBSUB
Codec ID/Info : Picture based subtitle format used on DVDs
Duration : 2 h 6 min
Bit rate : 7 753 b/s
Count of elements : 1344
Stream size : 7.03 MiB (0%)
Language : Hungarian
Default : No
Forced : No

Subtitle #17
ID : 19
Format : VobSub
Muxing mode : zlib
Codec ID : S_VOBSUB
Codec ID/Info : Picture based subtitle format used on DVDs
Duration : 1 h 59 min
Bit rate : 9 117 b/s
Count of elements : 1427
Stream size : 7.78 MiB (0%)
Language : Norwegian Bokmal
Default : No
Forced : No

Subtitle #18
ID : 20
Format : VobSub
Muxing mode : zlib
Codec ID : S_VOBSUB
Codec ID/Info : Picture based subtitle format used on DVDs
Duration : 1 h 58 min
Bit rate : 8 295 b/s
Count of elements : 1083
Stream size : 7.05 MiB (0%)
Language : Polish
Default : No
Forced : No

Subtitle #19
ID : 21
Format : VobSub
Muxing mode : zlib
Codec ID : S_VOBSUB
Codec ID/Info : Picture based subtitle format used on DVDs
Duration : 2 h 6 min
Bit rate : 9 509 b/s
Count of elements : 1450
Stream size : 8.62 MiB (1%)
Language : Romanian
Default : No
Forced : No

Subtitle #20
ID : 22
Format : VobSub
Muxing mode : zlib
Codec ID : S_VOBSUB
Codec ID/Info : Picture based subtitle format used on DVDs
Duration : 1 h 59 min
Bit rate : 9 854 b/s
Count of elements : 1381
Stream size : 8.41 MiB (0%)
Language : Swedish
Default : No
Forced : No

Subtitle #21
ID : 23
Format : VobSub
Muxing mode : zlib
Codec ID : S_VOBSUB
Codec ID/Info : Picture based subtitle format used on DVDs
Duration : 2 h 6 min
Bit rate : 8 480 b/s
Count of elements : 1437
Stream size : 7.69 MiB (0%)
Language : Thai
Default : No
Forced : No

Subtitle #22
ID : 24
Format : VobSub
Muxing mode : zlib
Codec ID : S_VOBSUB
Codec ID/Info : Picture based subtitle format used on DVDs
Duration : 3 s 413 ms
Bit rate : 31.4 kb/s
Count of elements : 1
Stream size : 13.1 KiB (0%)
Language : French
Default : No
Forced : No

Subtitle #23
ID : 25
Format : VobSub
Muxing mode : zlib
Codec ID : S_VOBSUB
Codec ID/Info : Picture based subtitle format used on DVDs
Duration : 1 h 11 min
Bit rate : 151 b/s
Count of elements : 19
Stream size : 79.6 KiB (0%)
Language : French
Default : No
Forced : No

Subtitle #24
ID : 26
Format : VobSub
Muxing mode : zlib
Codec ID : S_VOBSUB
Codec ID/Info : Picture based subtitle format used on DVDs
Duration : 56 min 13 s
Bit rate : 188 b/s
Count of elements : 19
Stream size : 77.7 KiB (0%)
Language : German
Default : No
Forced : No

Subtitle #25
ID : 27
Format : VobSub
Muxing mode : zlib
Codec ID : S_VOBSUB
Codec ID/Info : Picture based subtitle format used on DVDs
Duration : 1 h 54 min
Bit rate : 124 b/s
Count of elements : 23
Stream size : 104 KiB (0%)
Language : Spanish
Default : No
Forced : No

Subtitle #26
ID : 28
Format : VobSub
Muxing mode : zlib
Codec ID : S_VOBSUB
Codec ID/Info : Picture based subtitle format used on DVDs
Duration : 1 h 41 min
Bit rate : 157 b/s
Count of elements : 25
Stream size : 117 KiB (0%)
Language : Spanish
Default : No
Forced : No

Subtitle #27
ID : 29
Format : VobSub
Muxing mode : zlib
Codec ID : S_VOBSUB
Codec ID/Info : Picture based subtitle format used on DVDs
Duration : 1 h 54 min
Bit rate : 168 b/s
Count of elements : 30
Stream size : 141 KiB (0%)
Language : Czech
Default : No
Forced : No

Subtitle #28
ID : 30
Format : VobSub
Muxing mode : zlib
Codec ID : S_VOBSUB
Codec ID/Info : Picture based subtitle format used on DVDs
Duration : 1 h 0 min
Bit rate : 161 b/s
Count of elements : 21
Stream size : 72.0 KiB (0%)
Language : Hungarian
Default : No
Forced : No

Menu
00:00:00.000 : en:Chapter 01
00:06:51.160 : en:Chapter 02
00:11:34.819 : en:Chapter 03
00:15:46.278 : en:Chapter 04
00:19:13.485 : en:Chapter 05
00:23:33.453 : en:Chapter 06
00:27:54.464 : en:Chapter 07
00:32:05.840 : en:Chapter 08
00:37:12.939 : en:Chapter 09
00:40:54.910 : en:Chapter 10
00:44:41.804 : en:Chapter 11
00:47:44.278 : en:Chapter 12
00:50:56.553 : en:Chapter 13
00:55:22.193 : en:Chapter 14
00:59:09.045 : en:Chapter 15
01:03:09.160 : en:Chapter 16
01:06:12.635 : en:Chapter 17
01:11:18.565 : en:Chapter 18
01:14:43.896 : en:Chapter 19
01:17:40.906 : en:Chapter 20
01:23:39.681 : en:Chapter 21
01:26:11.541 : en:Chapter 22
01:31:01.414 : en:Chapter 23
01:35:19.964 : en:Chapter 24
01:39:50.567 : en:Chapter 25
01:44:25.259 : en:Chapter 26
01:48:26.541 : en:Chapter 27
01:54:07.298 : en:Chapter 28
01:56:12.090 : en:Chapter 29
02:00:30.765 : en:Chapter 30



Source Information

Code:

Release:
Sherlock.Holmes.2009.2160p.BluRay.REMUX.HEVC.DTS-HD.MA.5.1-FGT.mkv (55.55 GBs)


Code:


Note From UTR
Whilst we are happy for our releases to be re-posted on a platform we aren't on, please do so in an 'as-is' format. We ask that you do not create a new torrent, include all descriptions you see above including the UTR logo, tags, notes and screenshots. If you'd like to become a permanent poster on a website we don't post to, feel free to get in contact with a UTR member.
If possible please donate for seedboxes.
BTC - 1QA5fum5AyXvWzdVCkQzUNvw3Ef15fHRaR
Monero - 8AuksPSzY7fen3HHT1a2342PgVy4J93MKfXG3AAcayV76miTyJ3sNfn38srwrpLirGfeR5DwhTL8GW8pdQgT7bZcJ25ynMx
Dash - Xh4mNs6uwZdpCEX2HSEVwGvPD7yKxZ1Ccd
Ethereum - 0x51c06c94e74c16735a7a6e841ad29fc90a84eb1f




Files:

  • Sherlock Holmes (2009) [1080p x265 10bit FS85 Joy].mkv (1.7 GB)

Comments

Code:

  • udp://tracker.opentrackr.org:1337/announce
  • udp://9.rarbg.com:2710/announce
  • udp://9.rarbg.to:2710/announce
  • udp://tracker.torrent.eu.org:451/announce
  • udp://tracker.tiny-vps.com:6969/announce
  • udp://open.demonii.si:1337/announce
  • udp://exodus.desync.com:6969/announce