The.Devil.All.the.Time.2020.720p.NF.WEB-DL.DDP5.1.x264.LLG

  • Category Movies
  • Type HD
  • Language English
  • Total size 1.6 GB
  • Uploaded By LifeLongg
  • Downloads 222
  • Last checked 30 minutes ago
  • Date uploaded 6 days ago
  • Seeders 24
  • Leechers 8

The Devil All the Time

CrimeDramaThriller

Sinister characters converge around a young man devoted to protecting those he loves in a postwar backwoods town teeming with corruption and brutality.

Infohash : 3C8E7A53379067AD91946273519626DDAA3EA064

Quote:




******************************Thumbnbil:**********************




******************************Screenshots:********************

screenshot 1

screenshot 2

screenshot 3

screenshot 4

screenshot 5

screenshot 6

screenshot 7

screenshot 8

screenshot 9

screenshot 0


******************************************************

18+.The.Devil.All.the.Time.2020.720p.NF.WEB-DL.DDP5.1.x264.LLG.mp4
Format : MPEG-4
Format profile : Base Media
Codec ID : isom (isom/iso2/avc1/mp41)
File size : 1.56 GiB
Duration : 2 h 18 min
Overall bit rate mode : Variable
Overall bit rate : 1 612 kb/s
Writing application : Lavf58.29.100

Video
ID : 1
Format : AVC
Format/Info : Advanced Video Codec
Format profile : [email protected]
Format settings : CABAC / 1 Ref Frames
Format settings, CABAC : Yes
Format settings, Reference frames : 1 frame
Codec ID : avc1
Codec ID/Info : Advanced Video Coding
Duration : 2 h 18 min
Bit rate mode : Variable
Bit rate : 1 160 kb/s
Maximum bit rate : 3 600 kb/s
Width : 1 280 pixels
Height : 720 pixels
Display aspect ratio : 16:9
Frame rate mode : Constant
Frame rate : 24.000 FPS
Color space : YUV
Chroma subsampling : 4:2:0
Bit depth : 8 bits
Scan type : Progressive
Bits/(Pixel*Frame) : 0.052
Stream size : 1.13 GiB (72%)
Codec configuration box : avcC

Audio
ID : 2
Format : AC-3
Format/Info : Audio Coding 3
Commercial name : Dolby Digital
Codec ID : ac-3
Duration : 2 h 18 min
Bit rate mode : Constant
Bit rate : 448 kb/s
Channel(s) : 6 channels
Channel layout : L R C LFE Ls Rs
Sampling rate : 48.0 kHz
Frame rate : 31.250 FPS (1536 SPF)
Compression mode : Lossy
Stream size : 445 MiB (28%)
Language : English
Service kind : Complete Main
Default : Yes
Alternate group : 1




********************************************************



Files:

18+.The.Devil.All.the.Time.2020.720p.NF.WEB-DL.DDP5.1.x264.LLG
  • Sample.ts (14.8 MB)
  • 18+.The.Devil.All.the.Time.2020.720p.NF.WEB-DL.DDP5.1.x264.LLG.mp4 (1.6 GB)

There are currently no comments. Feel free to leave one :)

Code:

  • udp://tracker.openbittorrent.com:80/announce
  • udp://tracker.opentrackr.org:1337/announce