The Wizard (1989)(2020 SF Collector's Edition)(1080p BDRip x265 H...

  • Category Movies
  • Type HEVC/x265
  • Language English
  • Total size 3.1 GB
  • Uploaded By RT701
  • Downloads 184
  • Last checked 1 hour ago
  • Date uploaded 2 days ago
  • Seeders 10
  • Leechers 4

The Wizard

ComedyDramaFamilyRoad Movie

Corey (Fred Savage) refuses to let his emotionally disturbed younger brother Jimmy (Luke Edwards) be institutionalized, and the two run away together. They soon join forces with a resourceful girl (Jenny Lewis), who notices that Jimmy has a special talent: he is a "wizard" at video games and can achieve the high score on absolutely everything he plays. Evading their parents and a sinister bounty hunter, the trio head for a climactic showdown at the national video game championships in California.

Infohash : 3D9B1208028668F3D0A35340C6C75A454D35BCDC

The Wizard (1989)(2020 SF Collector's Edition) TMDb

a cTurtle release -- x265 10bit, crf22, med preset w/ adjustments, 4 audio tracks (incl. commentary), and English subs


**Notes: The source used for this encode was the new 2020 Shout Factory 36Mbps AVC release which is far superior to the 2018 from Universal. A quote from Blu-ray (.) com says it all: "A mere two years ago, Universal put "The Wizard" on Blu-ray, and the results were not good. Shout Factory has elected to try again with a new release of the 1989 movie, with their AVC encoded image (1.85:1 aspect ratio) presentation sourced from a "4K transfer," and while screencaps don't always tell the whole story, it's clear through comparison than the 2020 viewing experience blows the 2018 release out of the water. Colors are richer and real, with bright primaries that secure period clothing and video game ornamentation. Locations explore deep greenery and blue skies, while signage is distinct. Skintones are natural. Detail reaches the limitations of the original cinematography, offering a satisfactory view of road trip stops and location visits, which retain dimension. Facial surfaces enjoy newfound clarity. Gaming particulars are open for study. Delineation is communicative. Grain is fine and film-like, lacking the filtering that suffocated the previous release, though, interestingly, at the 71:11 mark, the old scan of the movie is utilized for seven seconds, presumably to cover for missing materials. I didn't notice this elsewhere, but it's subtle. The last two screencaps show the difference." (Full review here.) I've also got a crf18 ~11Mbps encode with lossless audio that I'll upload some day when data caps are lifted or folks here request it heavily enough. For now, it's the crf22 cømpact edition for all you 80s nostalgia gaming fans. Do enjoy!**




Code:

Source: The Wizard_t00.mkv (27 GB)


Quote:


Format                                   : Matroska
Format version                           : Version 4
File size                                : 3.10 GiB
Duration                                 : 1 h 40 min
Overall bit rate                         : 4 419 kb/s
Movie name                               : The Wizard (1989)(2020 SF Collector's Edition)
Encoded date                             : UTC 2020-09-16 11:10:52
Writing application                      : mkvmerge v50.0.0 ('Awakenings') 64-bit
Writing library                          : libebml v1.4.0 + libmatroska v1.6.2

Video
ID                                       : 1
Format                                   : HEVC
Format/Info                              : High Efficiency Video Coding
Format profile                           : Main [email protected]@Main
Codec ID                                 : V_MPEGH/ISO/HEVC
Duration                                 : 1 h 40 min
Bit rate                                 : 3 014 kb/s
Width                                    : 1 920 pixels
Height                                   : 1 036 pixels
Display aspect ratio                     : 1.85:1
Frame rate mode                          : Constant
Frame rate                               : 23.976 (24000/1001) FPS
Color space                              : YUV
Chroma subsampling                       : 4:2:0
Bit depth                                : 10 bits
Bits/(Pixel*Frame)                       : 0.063
Stream size                              : 2.11 GiB (68%)
Title                                    : crf22 HEVC (from 36Mbps 2020 Shout Factory AVC encode original)
Writing library                          : x265 3.2.1+1-b5c86a64bbbe:[Mac OS X][clang 11.0.3][64 bit] 10bit
Encoding settings                        : cpuid=1111039 / frame-threads=3 / wpp / no-pmode / no-pme / no-psnr / no-ssim / log-level=2 / input-csp=1 / input-res=1920x1036 / interlace=0 / total-frames=0 / level-idc=0 / high-tier=1 / uhd-bd=0 / ref=3 / no-allow-non-conformance / no-repeat-headers / annexb / no-aud / no-hrd / info / hash=0 / no-temporal-layers / open-gop / min-keyint=24 / keyint=240 / gop-lookahead=0 / bframes=8 / b-adapt=2 / b-pyramid / bframe-bias=0 / rc-lookahead=80 / lookahead-slices=6 / scenecut=40 / radl=0 / no-splice / no-intra-refresh / ctu=64 / min-cu-size=8 / no-rect / no-amp / max-tu-size=32 / tu-inter-depth=1 / tu-intra-depth=1 / limit-tu=0 / rdoq-level=0 / dynamic-rd=0.00 / no-ssim-rd / signhide / no-tskip / nr-intra=0 / nr-inter=0 / no-constrained-intra / no-strong-intra-smoothing / max-merge=3 / limit-refs=1 / no-limit-modes / me=1 / subme=5 / merange=57 / temporal-mvp / no-hme / weightp / no-weightb / no-analyze-src-pics / deblock=0:0 / sao / no-sao-non-deblock / rd=3 / selective-sao=4 / early-skip / rskip / no-fast-intra / no-tskip-fast / no-cu-lossless / b-intra / no-splitrd-skip / rdpenalty=0 / psy-rd=1.30 / psy-rdoq=0.00 / no-rd-refine / no-lossless / cbqpoffs=0 / crqpoffs=0 / rc=crf / crf=22.0 / qcomp=0.60 / qpstep=4 / stats-write=0 / stats-read=0 / ipratio=1.40 / pbratio=1.30 / aq-mode=4 / aq-strength=1.10 / cutree / zone-count=0 / no-strict-cbr / qg-size=32 / no-rc-grain / qpmax=69 / qpmin=0 / no-const-vbv / sar=1 / overscan=0 / videoformat=5 / range=0 / colorprim=1 / transfer=1 / colormatrix=1 / chromaloc=0 / display-window=0 / cll=0,0 / min-luma=0 / max-luma=1023 / log2-max-poc-lsb=8 / vui-timing-info / vui-hrd-info / slices=1 / no-opt-qp-pps / no-opt-ref-list-length-pps / no-multi-pass-opt-rps / scenecut-bias=0.05 / no-opt-cu-delta-qp / no-aq-motion / no-hdr / no-hdr-opt / no-dhdr10-opt / no-idr-recovery-sei / analysis-reuse-level=5 / scale-factor=0 / refine-intra=0 / refine-inter=0 / refine-mv=1 / refine-ctu-distortion=0 / no-limit-sao / ctu-info=0 / no-lowpass-dct / refine-analysis-type=0 / copy-pic=1 / max-ausize-factor=1.0 / no-dynamic-refine / no-single-sei / no-hevc-aq / no-svt / no-field / qp-adaptation-range=1.00
Language                                 : English
Default                                  : Yes
Forced                                   : No
Color range                              : Limited
Color primaries                          : BT.709
Transfer characteristics                 : BT.709
Matrix coefficients                      : BT.709

Audio #1
ID                                       : 2
Format                                   : E-AC-3
Format/Info                              : Enhanced AC-3
Commercial name                          : Dolby Digital Plus
Codec ID                                 : A_EAC3
Duration                                 : 1 h 40 min
Bit rate mode                            : Constant
Bit rate                                 : 768 kb/s
Channel(s)                               : 2 channels
Channel layout                           : L R
Sampling rate                            : 48.0 kHz
Frame rate                               : 31.250 FPS (1536 SPF)
Compression mode                         : Lossy
Delay relative to video                  : -5 ms
Stream size                              : 551 MiB (17%)
Title                                    : E-AC3 2.0 / 768kbps (from DTS-HD MA 2.0 / 1585kbps / original)
Language                                 : English
Service kind                             : Complete Main
Default                                  : Yes
Forced                                   : No

Audio #2
ID                                       : 3
Format                                   : AAC LC
Format/Info                              : Advanced Audio Codec Low Complexity
Codec ID                                 : A_AAC-2
Duration                                 : 1 h 40 min
Bit rate                                 : 229 kb/s
Channel(s)                               : 2 channels
Channel layout                           : L R
Sampling rate                            : 48.0 kHz
Frame rate                               : 46.875 FPS (1024 SPF)
Compression mode                         : Lossy
Delay relative to video                  : -44 ms
Stream size                              : 165 MiB (5%)
Title                                    : AAC 2.0 / 224kbps (from DTS-HD MA 2.0 / 1585kbps / original)
Language                                 : English
Default                                  : No
Forced                                   : No

Audio #3
ID                                       : 4
Format                                   : AC-3
Format/Info                              : Audio Coding 3
Commercial name                          : Dolby Digital
Codec ID                                 : A_AC3
Duration                                 : 1 h 40 min
Bit rate mode                            : Constant
Bit rate                                 : 192 kb/s
Channel(s)                               : 2 channels
Channel layout                           : L R
Sampling rate                            : 48.0 kHz
Frame rate                               : 31.250 FPS (1536 SPF)
Compression mode                         : Lossy
Stream size                              : 138 MiB (4%)
Title                                    : Commentary with Todd Holland [AC3 2.0 / 192kbps / original]
Language                                 : English
Service kind                             : Complete Main
Default                                  : No
Forced                                   : No

Audio #4
ID                                       : 5
Format                                   : AAC LC
Format/Info                              : Advanced Audio Codec Low Complexity
Codec ID                                 : A_AAC-2
Duration                                 : 1 h 40 min
Bit rate                                 : 192 kb/s
Channel(s)                               : 2 channels
Channel layout                           : L R
Sampling rate                            : 48.0 kHz
Frame rate                               : 46.875 FPS (1024 SPF)
Compression mode                         : Lossy
Delay relative to video                  : -44 ms
Stream size                              : 137 MiB (4%)
Title                                    : Commentary with Todd Holland [AAC 2.0 / 192kbps (from AC3 2.0 / 192kbps / original)]
Language                                 : English
Default                                  : No
Forced                                   : No

Text
ID                                       : 6
Format                                   : PGS
Muxing mode                              : zlib
Codec ID                                 : S_HDMV/PGS
Codec ID/Info                            : Picture based subtitle format used on BDs/HD-DVDs
Duration                                 : 1 h 39 min
Bit rate                                 : 36.2 kb/s
Count of elements                        : 2602
Stream size                              : 25.7 MiB (1%)
Title                                    : English-PGS
Language                                 : English
Default                                  : No
Forced                                   : No

Menu
00:00:00.000                             : :Chapter 1
00:07:52.973                             : :Chapter 2
00:15:52.452                             : :Chapter 3
00:24:39.478                             : :Chapter 4
00:34:03.041                             : :Chapter 5
00:41:43.501                             : :Chapter 6
00:50:12.009                             : :Chapter 7
00:58:30.007                             : :Chapter 8
01:06:20.477                             : :Chapter 9
01:14:04.941                             : :Chapter 10
01:21:36.392                             : :Chapter 11
01:30:48.443                             : :Chapter 12


Files:

  • The Wizard (1989)(2020 SF Collector's Edition)(1080p BDRip x265 HEVC crf22-M LsLt E-AC3-AAC 2.0)[cTurtle-Cømpact].mkv (3.1 GB)

There are currently no comments. Feel free to leave one :)

Code:

  • http://share.camoe.cn:8080/announce
  • udp://tracker.torrent.eu.org:451/announce
  • http://t.nyaatracker.com:80/announce
  • udp://tracker.doko.moe:6969/announce
  • http://asnet.pw:2710/announce
  • udp://thetracker.org:80/announce
  • http://tracker.tfile.co:80/announce
  • http://pt.lax.mx:80/announce
  • udp://santost12.xyz:6969/announce
  • https://tracker.bt-hash.com:443/announce
  • udp://bt.xxx-tracker.com:2710/announce
  • udp://tracker.vanitycore.co:6969/announce
  • udp://zephir.monocul.us:6969/announce
  • http://grifon.info:80/announce
  • http://retracker.spark-rostov.ru:80/announce
  • http://tr.kxmp.cf:80/announce
  • http://tracker.city9x.com:2710/announce
  • udp://bt.aoeex.com:8000/announce
  • http://tracker.tfile.me:80/announce
  • udp://tracker.tiny-vps.com:6969/announce
  • http://retracker.telecom.by:80/announce
  • http://tracker.electro-torrent.pl:80/announce
  • udp://tracker.tvunderground.org.ru:3218/announce
  • udp://tracker.halfchub.club:6969/announce
  • udp://retracker.nts.su:2710/announce
  • udp://wambo.club:1337/announce
  • udp://tracker.dutchtracking.com:6969/announce
  • udp://tc.animereactor.ru:8082/announce
  • udp://tracker.justseed.it:1337/announce
  • udp://tracker.leechers-paradise.org:6969/announce
  • udp://tracker.opentrackr.org:1337/announce
  • https://open.kickasstracker.com:443/announce
  • udp://tracker.coppersurfer.tk:6969/announce
  • udp://open.stealth.si:80/announce
  • http://retracker.mgts.by:80/announce
  • http://retracker.bashtel.ru:80/announce
  • udp://inferno.demonoid.pw:3418/announce
  • udp://tracker.cypherpunks.ru:6969/announce
  • http://tracker.calculate.ru:6969/announce
  • udp://tracker.sktorrent.net:6969/announce
  • udp://tracker.grepler.com:6969/announce
  • udp://tracker.flashtorrents.org:6969/announce
  • udp://tracker.yoshi210.com:6969/announce
  • udp://tracker.tiny-vps.com:6969/announce
  • udp://tracker.internetwarriors.net:1337/announce
  • udp://mgtracker.org:2710/announce
  • http://tracker.yoshi210.com:6969/announce
  • http://tracker.tiny-vps.com:6969/announce
  • udp://tracker.filetracker.pl:8089/announce
  • udp://tracker.ex.ua:80/announce
  • http://mgtracker.org:2710/announce
  • udp://tracker.aletorrenty.pl:2710/announce
  • http://tracker.filetracker.pl:8089/announce
  • http://tracker.ex.ua/announce
  • http://mgtracker.org:6969/announce
  • http://retracker.krs-ix.ru:80/announce
  • udp://tracker2.indowebster.com:6969/announce
  • http://thetracker.org:80/announce
  • http://tracker.bittor.pw:1337/announce
  • udp://tracker.kicks-ass.net:80/announce
  • udp://tracker.aletorrenty.pl:2710/announce
  • http://tracker.aletorrenty.pl:2710/announce
  • http://tracker.bittorrent.am/announce
  • udp://tracker.kicks-ass.net:80/announce
  • http://tracker.kicks-ass.net/announce
  • http://tracker.baravik.org:6970/announce
  • http://tracker.dutchtracking.com/announce
  • http://tracker.dutchtracking.com:80/announce
  • udp://tracker4.piratux.com:6969/announce
  • http://tracker.internetwarriors.net:1337/announce
  • udp://tracker.skyts.net:6969/announce
  • http://tracker.dutchtracking.nl/announce
  • http://tracker2.itzmx.com:6961/announce
  • http://tracker2.wasabii.com.tw:6969/announce
  • udp://tracker.sktorrent.net:6969/announce
  • http://www.wareztorrent.com:80/announce
  • udp://bt.xxx-tracker.com:2710/announce
  • udp://tracker.eddie4.nl:6969/announce
  • udp://tracker.grepler.com:6969/announce
  • udp://tracker.mg64.net:2710/announce
  • udp://tracker.coppersurfer.tk:6969/announce
  • http://tracker.opentrackr.org:1337/announce
  • http://tracker.dutchtracking.nl:80/announce
  • http://tracker.edoardocolombo.eu:6969/announce
  • http://tracker.ex.ua:80/announce
  • http://tracker.kicks-ass.net:80/announce
  • http://tracker.mg64.net:6881/announce
  • udp://tracker.flashtorrents.org:6969/announce
  • http://tracker.tfile.me/announce
  • http://tracker1.wasabii.com.tw:6969/announce
  • udp://tracker.bittor.pw:1337/announce
  • http://tracker.tvunderground.org.ru:3218/announce
  • http://tracker.grepler.com:6969/announce
  • udp://tracker.bittor.pw:1337/announce
  • http://tracker.flashtorrents.org:6969/announce
  • http://retracker.gorcomnet.ru/announce
  • udp://tracker.sktorrent.net:6969/announce
  • udp://tracker.sktorrent.net:6969
  • udp://public.popcorn-tracker.org:6969/announce
  • udp://tracker.ilibr.org:80/announce
  • udp://tracker.kuroy.me:5944/announce
  • udp://tracker.mg64.net:6969/announce
  • udp://tracker.cyberia.is:6969/announce
  • http://tracker.devil-torrents.pl:80/announce
  • udp://tracker2.christianbro.pw:6969/announce
  • udp://retracker.lanta-net.ru:2710/announce
  • udp://tracker.internetwarriors.net:1337/announce
  • udp://ulfbrueggemann.no-ip.org:6969/announce
  • http://torrentsmd.eu:8080/announce
  • udp://peerfect.org:6969/announce
  • udp://tracker.swateam.org.uk:2710/announce
  • http://ns349743.ip-91-121-106.eu:80/announce
  • http://torrentsmd.me:8080/announce
  • http://agusiq-torrents.pl:6969/announce
  • http://fxtt.ru:80/announce
  • udp://tracker.vanitycore.co:6969/announce
  • udp://explodie.org:6969