Des S01 (Mini-Series) 1080P RB58

  • Category TV
  • Type HD
  • Language English
  • Total size 3.1 GB
  • Uploaded By RedBaron58
  • Downloads 870
  • Last checked 24 minutes ago
  • Date uploaded 3 days ago
  • Seeders 156
  • Leechers 37

Infohash : 76455F26F15B4C97864FF832A0911B56D5B2B34A

Des S01 (Mini-Series) 1080P x264 mp4

https://www.imdb.com/title/tt11656892/

Thank you for your kind comments and feedback on my other torrents, your feedback is welcome.

About the Series:
Fact-based drama starring David Tennant as notorious serial killer Dennis Nilsen.
On 9 February 1983, Detective Chief Inspector Peter Jay is called to the leafy north London
address of 23 Cranley Gardens, where he discovers the drains clogged with rotting human flesh
and bones. But the extent of this grisly discovery only becomes apparent when the culprit
returns from work.

I hope you enjoy.





Technical:

General
Complete name : I:\Des S01\Des S01E01 1080P x264 RB58.mp4
Format : MPEG-4
Format profile : Base Media
Codec ID : isom
File size : 1.02 GiB
Duration : 46mn 26s
Overall bit rate mode : Variable
Overall bit rate : 3 140 Kbps
Writing application : VideoReDo (Lavf57.71.100)

Video
ID : 1
Format : AVC
Format/Info : Advanced Video Codec
Format profile : [email protected]
Format settings, CABAC : Yes
Format settings, ReFrames : 4 frames
Codec ID : avc1
Codec ID/Info : Advanced Video Coding
Duration : 46mn 26s
Bit rate : 3 000 Kbps
Width : 1 920 pixels
Height : 1 080 pixels
Display aspect ratio : 16:9
Frame rate mode : Constant
Frame rate : 25.000 fps
Color space : YUV
Chroma subsampling : 4:2:0
Bit depth : 8 bits
Scan type : MBAFF
Scan order : Top Field First
Bits/(Pixel*Frame) : 0.058
Stream size : 997 MiB (96%)

Audio
ID : 2
Format : AAC
Format/Info : Advanced Audio Codec
Format profile : LC
Codec ID : 40
Duration : 46mn 26s
Duration_LastFrame : -21ms
Bit rate mode : Variable
Bit rate : 125 Kbps
Maximum bit rate : 128 Kbps
Channel(s) : 2 channels
Channel positions : Front: L R
Sampling rate : 48.0 KHz
Compression mode : Lossy
Stream size : 41.7 MiB (4%)
Language : English

Files:

Des S01
  • Des S01E03 1080P x264 RB58.mp4 (1.0 GB)
  • Torrent_downloaded_from_Demonoid.is_.txt (0.1 KB)
  • [TGx]Downloaded from torrentgalaxy.to .txt (0.6 KB)
  • Where I Upload.txt (0.4 KB)
  • Des S01E02 1080P x264 RB58.mp4 (1.0 GB)
  • Des S01E01 1080P x264 RB58.mp4 (1.0 GB)

Comments

Code:

  • udp://tracker.coppersurfer.tk:6969/announce
  • udp://tracker.leechers-paradise.org:6969/announce
  • udp://explodie.org:6969/announce
  • udp://tracker.cyberia.is:6969/announce
  • udp://tracker.uw0.xyz:6969/announce
  • udp://tracker.torrent.eu.org:451/announce
  • udp://open.stealth.si:80/announce
  • udp://9.rarbg.com:2710/announce